Survivor | Bölüm 40 | DVBRip XviD 08.06.2013 | OpeD



Kod:
General
Complete name                            : Survivor.BL.40.DVBRip.XviD-08.06.2013-OpeD.avi
Format                                   : AVI
Format/Info                              : Audio Video Interleave
File size                                : 922 MiB
Duration                                 : 1h 58mn
Overall bit rate                         : 1 085 Kbps
Writing library                          : MPlayer

Video
ID                                       : 0
Format                                   : MPEG-4 Visual
Format profile                           : Advanced Simple@L5
Format settings, BVOP                    : 2
Format settings, QPel                    : No
Format settings, GMC                     : No warppoints
Format settings, Matrix                  : Default (H.263)
Muxing mode                              : Packed bitstream
Codec ID                                 : XVID
Codec ID/Hint                            : XviD
Duration                                 : 1h 58mn
Bit rate                                 : 1 000 Kbps
Width                                    : 720 pixels
Height                                   : 576 pixels
Display aspect ratio                     : 4:3
Frame rate                               : 25.000 fps
Standard                                 : PAL
Color space                              : YUV
Chroma subsampling                       : 4:2:0
Bit depth                                : 8 bits
Scan type                                : Progressive
Compression mode                         : Lossy
Bits/(Pixel*Frame)                       : 0.096
Stream size                              : 850 MiB (92%)
Writing library                          : XviD 73

Audio
ID                                       : 1
Format                                   : MPEG Audio
Format version                           : Version 1
Format profile                           : Layer 3
Mode                                     : Joint stereo
Mode extension                           : MS Stereo
Codec ID                                 : 55
Codec ID/Hint                            : MP3
Duration                                 : 1h 58mn
Bit rate mode                            : Constant
Bit rate                                 : 80.0 Kbps
Channel(s)                               : 2 channels
Sampling rate                            : 32.0 KHz
Compression mode                         : Lossy
Stream size                              : 68.0 MiB (7%)
Alignment                                : Aligned on interleaves
Interleave, duration                     : 468 ms (11.70 video frames)
Interleave, preload duration             : 936 ms
Kod:
http://letitbit.net/folder/22683162/12979528

http://turbobit.net/download/folder/1015340

http://netfolder.in/GVZAOkL/diziler

http://www.filefactory.com/f/7c327cd32f73b92c/

http://ul.to/folder/iisdez

http://bitshare.com/?d=ts49ain9

http://freakshare.com/folder/170204/a6781ca.html

http://unextfiles.com/download/folder/1015340
http://bitshare.com/files/rict4fny/S...part4.rar.html
http://bitshare.com/files/ewy8y1zc/S...part3.rar.html
http://bitshare.com/files/sru61h3q/S...part2.rar.html
http://bitshare.com/files/dbi6im7b/S...part1.rar.html

Survivor.BL.40.DVBRip.XviD-08.06.2013-OpeD.part3.rar
Survivor.BL.40.DVBRip.XviD-08.06.2013-OpeD.part4.rar
Survivor.BL.40.DVBRip.XviD-08.06.2013-OpeD.part1.rar
Survivor.BL.40.DVBRip.XviD-08.06.2013-OpeD.part2.rar

http://u22683162.letitbit.net/downlo...part3.rar.html
http://u22683162.letitbit.net/downlo...part2.rar.html
http://u22683162.letitbit.net/downlo...part1.rar.html
http://u22683162.letitbit.net/downlo...part4.rar.html

http://uploaded.net/file/tliu265n/Su...OpeD.part3.rar
http://uploaded.net/file/4dle9wjx/Su...OpeD.part4.rar
http://uploaded.net/file/ilon3dvh/Su...OpeD.part1.rar
http://uploaded.net/file/2mfigw4i/Su...OpeD.part2.rar

http://www.netload.in/dateiB3k5fk2EQ....part1.rar.htm
http://www.netload.in/datei0ItQ6q5gG....part3.rar.htm
http://www.netload.in/dateiNpJq0LWjA....part2.rar.htm
http://www.netload.in/dateisQegTPSAQ....part4.rar.htm

http://freakshare.com/files/2icsfo2x...part1.rar.html
http://freakshare.com/files/54rj26n6...part2.rar.html
http://freakshare.com/files/pj5jesrr...part3.rar.html
http://freakshare.com/files/mitsre1b...part4.rar.html

http://www.filefactory.com/file/15lo...OpeD_part3_rar
http://www.filefactory.com/file/1jbh...OpeD_part1_rar
http://www.filefactory.com/file/71kq...OpeD_part2_rar
http://www.filefactory.com/file/gpnt...OpeD_part4_rar

Survivor.BL.40.DVBRip.XviD-08.06.2013-OpeD.part1.rar
Survivor.BL.40.DVBRip.XviD-08.06.2013-OpeD.part2.rar
Survivor.BL.40.DVBRip.XviD-08.06.2013-OpeD.part4.rar
Survivor.BL.40.DVBRip.XviD-08.06.2013-OpeD.part3.rar

Tek Linkler

http://bitshare.com/files/3xbvpe05/S...-OpeD.avi.html

Survivor.BL.40.DVBRip.XviD-08.06.2013-OpeD.avi

http://u22683162.letitbit.net/downlo...-OpeD.avi.html

http://uploaded.net/file/oc4qrhs6/Su....2013-OpeD.avi

http://freakshare.com/files/q6u7b14n...-OpeD.avi.html

http://www.netload.in/dateiosuLb50e1...3-OpeD.avi.htm

Survivor.BL.40.DVBRip.XviD-08.06.2013-OpeD.avi

http://freakshare.com/files/iy9ji6yp...-OpeD.avi.html


Rip By SinanFurkan OpeD

Linkler Birbirleriyle Uyumludur......Iyi Seyirler

Referral URL: http://hotfile.com/register.html?reff=5467501